(Vocal Jazz) Jaimee Paul - Melancholy Baby - 2011, FLAC (image+.cue), lossless

Страницы:  1
Ответить
Автор
Сообщение

dnoz

Top Seed 08* 5120r

Стаж: 10 лет 11 месяцев

Сообщений: 7812

dnoz · 30-Июл-11 20:52 (8 лет назад)

Jaimee Paul / Melancholy Baby
Жанр: Vocal Jazz
Год издания диска: 2011
Издатель (лейбл): Green Hill
Страна: US
Аудиокодек: FLAC (*.flac)
Тип рипа: image+.cue
Битрейт аудио: lossless
Продолжительность: 54:50
Источник (релизер): demonoid (fipi)
Наличие сканов в содержимом раздачи: да
Треклист:
1. Don’t Cry Baby
2. Ain’t No Sunshine
3. Come Rain Or Come Shine
4. I Want A Little Sugar In My Bowl
5. You’ve Changed
6. I Still Haven’t Found What I’m Looking For
7. A Sunday Kind Of Love
8. Big Spender
9. Don’t Explain
10. What’ll I Do
11. People Get Ready
12. Smile
13. My Melancholy Baby (feat. Beegie Adair)
http://www.jaimeepaul.com/
http://www.myspace.com/jaimeepaul
Лог создания рипа
Exact Audio Copy V1.0 beta 2 from 29. April 2011
EAC extraction logfile from 25. July 2011, 16:02
Jaimee Paul / Melancholy Baby
Used drive : _NEC DVD_RW ND-3540A Adapter: 4 ID: 0
Read mode : Secure
Utilize accurate stream : Yes
Defeat audio cache : No
Make use of C2 pointers : Yes
Read offset correction : 48
Overread into Lead-In and Lead-Out : No
Fill up missing offset samples with silence : Yes
Delete leading and trailing silent blocks : No
Null samples used in CRC calculations : No
Used interface : Native Win32 interface for Win NT & 2000
Used output format : Internal WAV Routines
Sample format : 44.100 Hz; 16 Bit; Stereo
TOC of the extracted CD
Track | Start | Length | Start sector | End sector
---------------------------------------------------------
1 | 0:00.00 | 4:11.51 | 0 | 18875
2 | 4:11.51 | 4:23.59 | 18876 | 38659
3 | 8:35.35 | 4:35.34 | 38660 | 59318
4 | 13:10.69 | 3:04.67 | 59319 | 73185
5 | 16:15.61 | 4:48.36 | 73186 | 94821
6 | 21:04.22 | 3:48.52 | 94822 | 111973
7 | 24:52.74 | 4:35.11 | 111974 | 132609
8 | 29:28.10 | 3:23.71 | 132610 | 147905
9 | 32:52.06 | 4:47.14 | 147906 | 169444
10 | 37:39.20 | 3:54.61 | 169445 | 187055
11 | 41:34.06 | 3:39.08 | 187056 | 203488
12 | 45:13.14 | 4:34.66 | 203489 | 224104
13 | 49:48.05 | 5:01.72 | 224105 | 246751
Range status and errors
Selected range
Filename C:\My Music\Jaimee Paul - Melancholy Baby\Jaimee Paul - Melancholy Baby.wav
Peak level 98.3 %
Extraction speed 21.7 X
Range quality 100.0 %
Copy CRC 58C1AFB8
Copy OK
No errors occurred
End of status report
Download
Сайт не распространяет и не хранит электронные версии произведений, а лишь предоставляет доступ к создаваемому пользователями каталогу ссылок на торрент-файлы, которые содержат только списки хеш-сумм
Как скачивать? (для скачивания .torrent файлов необходима регистрация)
[Профиль]  [ЛС] 

Darkman

Top Seed 05* 640r

Стаж: 11 лет

Сообщений: 10204

Darkman · 30-Июл-11 21:35 (спустя 42 мин.)

Defeat audio cache : No
Make use of C2 pointers : Yes

долно быть наоборот... ----> сомнительно (статис) .. как и другой релиз этого альбома (где рип с болванки)
[Профиль]  [ЛС] 

dnoz

Top Seed 08* 5120r

Стаж: 10 лет 11 месяцев

Сообщений: 7812

dnoz · 30-Июл-11 22:03 (спустя 28 мин.)

Это я всё понимаю...Я спросил у deepofrain, он дал добро - сказал, что другой релиз закроет...
[Профиль]  [ЛС] 

Darkman

Top Seed 05* 640r

Стаж: 11 лет

Сообщений: 10204

Darkman · 30-Июл-11 22:22 (спустя 18 мин.)

да.. там наверное тоже с демоноида .. записаный на болванку.. и потом рипнутый.. - xуже чем тут тогда, то есть.
[Профиль]  [ЛС] 
 
Ответить
Loading...
Error