Мальцев Константин - Массаж при гипертонической болезни [2013, обучающая видеопрограмма, медицина, массаж, DVDRip, RUS] (Видеоурок)

Страницы:  1
Ответить
Автор
Сообщение

Olu6ka

Top Seed 06* 1280r

Стаж: 11 лет 7 месяцев

Сообщений: 21937

Olu6ka · 16-Июн-14 04:23 (5 лет 2 месяца назад)

Мальцев Константин - Массаж при гипертонической болезни
Страна: Россия
Жанр: медицина, массаж
Год выпуска: 2013
Дистрибьютор: «Эврика фильм»
Продолжительность: 00:33:01
Описание: Гипертоническая болезнь (ГБ) - это повышение артериального давления, нарушение тонуса сосудов различных областей (чаще головного мозга и сердца), что приводит к сужению артериол и изменению сердечного выбро­са. Массаж показан в комплексном лечении ГБ и выполняется при любой стадии. Особенно эффективно применение массажа в начальных стадиях ГБ у людей с выраженными сосудистыми и вегетативными проявлениями. Видео содержит следующие моменты: Введение и методика, Массаж волосистой части головы, Шейно - воротниковой зоны, Лица и Самомассаж. Курс рассчитан на 10-15 сеансов, желательно в первой половине дня, ежедневно или через день, примерное время одного сеанса 20-25 минут. Задачи массажа при ГБ:
1. Снизить АД;
2. Уменьшить головные боли и головокружение;
3. Нормализовать психоэмоциональное состояние пациента;
4. Способствовать предотвращению гипертонических кризов.
Ведущий: Мальцев Константин Витальевич - старший преподаватель института восстановительной медицины
Качество: DVDRip
Формат: AVI
Видео: 720x400 (1.80:1), 25 fps, XviD ~1598 kbps, 0.22 bit/pixel
Аудио: 48 kHz, AC3 Dolby Digital, 2/0 (L,R) ch, ~192.00 kbps
Скриншоты
Отчет MI
General
Complete name : Массаж при гипертонической болезни (Мальцев Константин).avi
Format : AVI
Format/Info : Audio Video Interleave
File size : 425 MiB
Duration : 33mn 1s
Overall bit rate : 1 800 Kbps
Writing application : VirtualDubMod 1.5.10.3
Writing library : VirtualDubMod build 2550/release
Video
ID : 0
Format : MPEG-4 Visual
Format profile : Advanced [email protected]
Format settings, BVOP : 1
Format settings, QPel : No
Format settings, GMC : No warppoints
Format settings, Matrix : Custom
Codec ID : XVID
Codec ID/Hint : XviD
Duration : 33mn 1s
Bit rate : 1 599 Kbps
Width : 720 pixels
Height : 400 pixels
Display aspect ratio : 16:9
Frame rate : 25.000 fps
Color space : YUV
Chroma subsampling : 4:2:0
Bit depth : 8 bits
Scan type : Progressive
Compression mode : Lossy
Bits/(Pixel*Frame) : 0.222
Stream size : 378 MiB (89%)
Writing library : XviD 65
Audio
ID : 1
Format : AC-3
Format/Info : Audio Coding 3
Mode extension : CM (complete main)
Format settings, Endianness : Big
Codec ID : 2000
Duration : 33mn 1s
Bit rate mode : Constant
Bit rate : 192 Kbps
Channel count : 2 channels
Channel positions : Front: L R
Sampling rate : 48.0 KHz
Bit depth : 16 bits
Compression mode : Lossy
Stream size : 45.3 MiB (11%)
Alignment : Split accross interleaves
Interleave, duration : 40 ms (1.00 video frame)
Interleave, preload duration : 500 ms
Раздача от группы
Download
Сайт не распространяет и не хранит электронные версии произведений, а лишь предоставляет доступ к создаваемому пользователями каталогу ссылок на торрент-файлы, которые содержат только списки хеш-сумм
Как скачивать? (для скачивания .torrent файлов необходима регистрация)
[Профиль]  [ЛС] 

М1халыч

Стаж: 9 лет 1 месяц

Сообщений: 548


М1халыч · 16-Июн-14 20:04 (спустя 15 часов)

Цитата:
Особенно эффективно применение массажа в начальных стадиях ГБ у людей с выраженными сосудистыми и вегетативными проявлениями.
Цитата:
Массаж волосистой части головы, Шейно - воротниковой зоны, Лица и Самомассаж.
Olu6ka
Это очень эффективно, и очень важная и нужная тема.
Проверено опытом.
[Профиль]  [ЛС] 

Olu6ka

Top Seed 06* 1280r

Стаж: 11 лет 7 месяцев

Сообщений: 21937

Olu6ka · 17-Июн-14 02:47 (спустя 6 часов)

М1халыч
зачастую спасает от желания тупо лежать в постели
[Профиль]  [ЛС] 

М1халыч

Стаж: 9 лет 1 месяц

Сообщений: 548


М1халыч · 17-Июн-14 18:22 (спустя 15 часов)

Olu6ka

На самом деле область применения его гораздо шире...
А лучше всего самомассаж:дешево , сердито и меньше времени уходит. И не надо спрашивать - "не больно?"
[Профиль]  [ЛС] 

Olu6ka

Top Seed 06* 1280r

Стаж: 11 лет 7 месяцев

Сообщений: 21937

Olu6ka · 18-Июн-14 03:24 (спустя 9 часов)

М1халыч
согласна, только вот не все поддается серьезной проработке
[Профиль]  [ЛС] 

М1халыч

Стаж: 9 лет 1 месяц

Сообщений: 548


М1халыч · 18-Июн-14 18:04 (спустя 14 часов)

Цитата:
не все поддается серьезной проработке
Olu6ka
Считаю, вполне достаточно. Иначе ни времени ни сил на все не хватит...
не хватает
Ох эти женщины! Всегда им чего то не хватает: зимою - лета, осенью - весны...
[Профиль]  [ЛС] 

tont

Стаж: 9 лет 3 месяца

Сообщений: 20

tont · 03-Июн-16 16:38 (спустя 1 год 11 месяцев)

Классный дядька! Обучаюсь у него массажу и всем техникам!
[Профиль]  [ЛС] 
 
Ответить
Loading...
Error